Extreme Down»»Yesterday

Yesterday French (VFF)

Films VF / Exclus / Film Streaming Billy Goal 12-09-2019, 15:08

Yesterday.French (VFF)

Yesterday sur extremedown
Yesterday sur extremedown
Réalisé par
Avec
Genre
Durée
Nationalitéfr
Date
Synopsis

Hier tout le monde connaissait les Beatles, mais aujourd'hui seul Jack se souvient de leurs chansons. Il est sur le point de devenir extrêmement célèbre.NFO x264: Show/hide text General Unique ID : 206740190211229970205997225914958619702 (0x9B88B659878EA9A8325A57B1F8402436) Complete name : Yesterday.2019.VOSTFR.WEB-DL.x264-ACOOL.WwW.Zone-Telechargement.Net.mkv Format : Matroska Format version : Version 4 / Version 2 File size : 1.10 GiB Duration : 1 h 56 min Overall bit rate : 1 359 kb/s Movie name : Yesterday Encoded date : UTC 2019-09-11 22:19:49 Writing application : mkvmerge v25.0.0 ('Prog Noir') 64-bit Writing library : libebml v1.3.6 + libmatroska v1.4.9 Video ID : 1 Format : AVC Format/Info : Advanced Video Codec Format profile : [email protected] Format settings : CABAC / 5 Ref Frames Format settings, CABAC : Yes Format settings, ReFrames : 5 frames Codec ID : V_MPEG4/ISO/AVC Duration : 1 h 56 min Bit rate : 1 100 kb/s Width : 720 pixels Height : 298 pixels Display aspect ratio : 2.40:1 Original display aspect rat : 2.40:1 Frame rate mode : Constant Frame rate : 23.976 (24000/1001) FPS Color space : YUV Chroma subsampling : 4:2:0 Bit depth : 8 bits Scan type : Progressive Bits/(Pixel*Frame) : 0.214 Stream size : 915 MiB (81%) Writing library : x264 core 152 r2851M ba24899 Encoding settings : cabac=1 / ref=5 / deblock=1:-1:-1 / analyse=0x3:0x113 / me=umh / subme=9 / psy=1 / psy_rd=1.00:0.15 / mixed_ref=1 / me_range=16 / chroma_me=1 / trellis=2 / 8x8dct=1 / cqm=0 / deadzone=21,11 / fast_pskip=1 / chroma_qp_offset=-3 / threads=24 / lookahead_threads=2 / sliced_threads=0 / nr=0 / decimate=1 / interlaced=0 / bluray_compat=0 / constrained_intra=0 / bframes=3 / b_pyramid=2 / b_adapt=2 / b_bias=0 / direct=3 / weightb=1 / open_gop=0 / weightp=2 / keyint=250 / keyint_min=23 / scenecut=40 / intra_refresh=0 / rc_lookahead=50 / rc=2pass / mbtree=1 / bitrate=1100 / ratetol=1.0 / qcomp=0.60 / qpmin=0 / qpmax=69 / qpstep=4 / cplxblur=20.0 / qblur=0.5 / ip_ratio=1.40 / aq=1:1.00 Language : English Default : Yes Forced : No Audio ID : 2 Format : AAC Format/Info : Advanced Audio Codec Format profile : LC Codec ID : A_AAC-2 Duration : 1 h 56 min Bit rate : 256 kb/s Channel(s) : 2 channels Channel positions : Front: L R Sampling rate : 48.0 kHz Frame rate : 46.875 FPS (1024 SPF) Compression mode : Lossy Delay relative to video : -43 ms Stream size : 213 MiB (19%) Title : English AAC 2.0 Language : English Default : Yes Forced : No Text #1 ID : 3 Format : UTF-8 Codec ID : S_TEXT/UTF8 Codec ID/Info : UTF-8 Plain Text Duration : 1 h 54 min Bit rate : 62 b/s Count of elements : 1577 Stream size : 52.7 KiB (0%) Title : FULL FR SRT Language : French Default : Yes Forced : Yes Text #2 ID : 4 Format : ASS Codec ID : S_TEXT/ASS Codec ID/Info : Advanced Sub Station Alpha Duration : 1 h 54 min Bit rate : 103 b/s Count of elements : 1577 Compression mode : Lossless Stream size : 87.0 KiB (0%) Title : FULL FR ASS Language : French Default : No Forced : No




Offres streaming et DVD













Veuillez vous connecter ou créer un nouveau compte gratuitement pour poster des commentaires

Information

Seuls les membres peuvent ajouter un commentaire.

Commentaires:

Information
Les Invités ne peuvent pas laisser de commentaires. Merci de vous enregister !
À propos
Extreme Down, Extreme Download : Les films et series en streaming ou telechargement.
Retour en haut